2160p arrow 2018 movies ita game of thrones house of cards titans s01e04 Supernatural Venom Incredibles 2 Outlander big bang theory español ddr ufc 230 UFC 2018 ITA ncis The Predator alpha Evo 0 the big bang theory s12e07 Empire ettv fabbriciani arrow español survivor Star Trek Discovery The Walking dead damerini Greys Anatomy ethd Doctor Who Supergirl haberkamp ita 2018 star trek discovery español dtone van helsing in mo yang WWE champian fulton It the flash titans seal team vikings blindspot coral egan shameless etrg etmovies venom ita evo office 2019 fgt Lucifer oceans eleven Big Bang Theory NFL Dtone great british bake off s09e10 ray donovan the nun The Equalizer 2 modern family Gotham A Discovery of Witches Outlander S04E01 hindi doctor who s11e05 the big bang theory 
Warning! Do not Download Without a VPN!
Your IP Address is .   Location is
Download and surf securely, stream unlimited and protect your personal data!
We strongly recommend using SpyOFF VPN!
Become Anonymous with SpyOFF
ETTV Recommended TV Shows
UFC 230 Cormier vs Lewis HDTV x264-Star [TJET] torrent
Ray.Donovan.S06E02.WEBRip.x264-PBS[ettv] torrent
Saturday.Night.Live.S44E04.Jonah.Hill.and.Maggie.Rogers.HDTV.x264-CRiMSON[ettv] torrent
Outlander.S04E01.WEB.H264-MEMENTO[ettv] torrent

ETTV Recommended Xvid
The.Meg.2018.BDRip.XviD.AC3-EVO[EtMovies] torrent
The.First.Date.2018.HDRip.XviD.AC3-EVO[EtMovies] torrent
BlacKkKlansman.2018.BRRip.XviD.AC3-EVO[EtMovies] torrent
The Hate U Give.2018.HC.HDRip.XviD.AC3-EVO[EtMovies] torrent

ETTV Recommended HD
The Marine 6.Close Quarters.720p.WEB-DL.H264.AC3-EVO[EtHD] torrent
The Hate U Give.2018.1080p.HC.HDRip.X264.AC3-EVO[EtHD] torrent
Generational.Sins.2017.1080p.AMZN.WEB-DL.DDP5.1.H.264-NTb[EtHD] torrent
Robin.Hood.The.Rebellion.2018.1080p.WEB-DL.DD5.1.H264-CMRG[EtHD] torrent

ETTV Recommended UHD
The.Matrix.Revolutions.2003.Multi.mUHD.2160p.x265.HDR.DD.5.1-DTOne torrent
The.Fog.1980.Multi.UHD.2160p.Bluray.x265.HDR.TS.5.1-DTOne torrent
They.Live.1988.Multi.UHD.2160p.Bluray.x265.HDR.DTS.5.1-DTOne torrent
Blade Runner 2049 (2017) 4K UHD BluRay x264 DTS Alien4 torrent

ETTV Recommended Cam
Hunter Killer 2018 HDCAM.XViD.AC3-ETRG torrent
Replicas 2018.HDCAM.x264.AC3-ETRG torrent
Bohemian Rhapsody 2018 HDCAM.XViD.AC3-ETRG torrent
The Nutcracker and the Four Realms 2018 HDCAM x264 AC3-ETRG torrent

ETTV Recommended Foreign
Raatchasan (2018) 720p x265 AAC 5.1 - DTOne torrent
Dans la brume 2018 1080p BluRay DD5.1 x264-SPEED[EtHD] torrent
Sleepy Hollow (1999) 720p BluRay x264 Dual Audio [Hindi DD5.1 - English DD5.1] - ESUB ~ Ranvijay torrent
5 Weddings 2018 PreDvd Hindi 720p x264 AAC - mkvCinemas torrent

Social


Download Torrent "DC's Legends of Tomorrow Season 3 1080p AMZN WEBRip x265 AAC 5.1 D0ct0rLe..."

IMDB Details
Description:

N/A

Genre:

N/A

Download Torrent (Magnet)
Download Torrent (File)
Seeds: 19
Leechers: 14
Completed: 24 
Last Checked: 28-05-2018 23:29:03


Details
Title:DC's Legends of Tomorrow Season 3 1080p AMZN WEBRip x265 AAC 5.1 D0ct0rLe...
Description:





Media Information

Unique ID                                : 213732539197069435958633097120816406824 (0xA0CB63C589F9E4D2A693B20781ADA128)
Complete name                            :DC's Legends of Tomorrow Season 3 1080p AMZN WEBRip  x265 AAC 5.1  D0ct0rLew[UTR]\DC's Legends of Tomorrow S03E01 Aruba-Con 1080p AMZN WEBRip  x265 AAC 5.1  D0ct0rLew[UTR].mkv
Format                                   : Matroska
Format version                           : Version 4 / Version 2
File size                                : 1.89 GiB
Duration                                 : 42 min 22 s
Overall bit rate                         : 6 390 kb/s
Encoded date                             : UTC 2018-05-21 22:38:38
Writing application                      : mkvmerge v15.0.0 ('Duel with the Devil') 64-bit
Writing library                          : libebml v1.3.5 + libmatroska v1.4.5

Video
ID                                       : 3
Format                                   : HEVC
Format/Info                              : High Efficiency Video Coding
Format profile                           : Main [email protected]@Main
Codec ID                                 : V_MPEGH/ISO/HEVC
Duration                                 : 42 min 22 s
Bit rate                                 : 5 939 kb/s
Width                                    : 1 920 pixels
Height                                   : 1 080 pixels
Display aspect ratio                     : 16:9
Frame rate mode                          : Constant
Frame rate                               : 23.976 (24000/1001) FPS
Color space                              : YUV
Chroma subsampling                       : 4:2:0
Bit depth                                : 10 bits
Bits/(Pixel*Frame)                       : 0.119
Stream size                              : 1.76 GiB (93%)
Writing library                          : x265 2.7+25-e1ed4d609b52:[Windows][MSVC 1914][64 bit] 10bit
Encoding settings                        : cpuid=1050111 / frame-threads=3 / numa-pools=8 / wpp / no-pmode / no-pme / no-psnr / no-ssim / log-level=2 / input-csp=1 / input-res=1920x1080 / interlace=0 / total-frames=60960 / level-idc=0 / high-tier=1 / uhd-bd=0 / ref=4 / no-allow-non-conformance / no-repeat-headers / annexb / no-aud / no-hrd / info / hash=0 / no-temporal-layers / open-gop / min-keyint=23 / keyint=250 / gop-lookahead=0 / bframes=8 / b-adapt=2 / b-pyramid / bframe-bias=0 / rc-lookahead=90 / lookahead-slices=4 / scenecut=40 / radl=0 / no-intra-refresh / ctu=64 / min-cu-size=8 / no-rect / no-amp / max-tu-size=32 / tu-inter-depth=1 / tu-intra-depth=1 / limit-tu=0 / rdoq-level=2 / dynamic-rd=0.00 / no-ssim-rd / signhide / no-tskip / nr-intra=0 / nr-inter=0 / no-constrained-intra / no-strong-intra-smoothing / max-merge=3 / limit-refs=3 / limit-modes / me=3 / subme=3 / merange=92 / temporal-mvp / weightp / no-weightb / no-analyze-src-pics / deblock=3:3 / no-sao / no-sao-non-deblock / rd=4 / no-early-skip / rskip / no-fast-intra / no-tskip-fast / no-cu-lossless / no-b-intra / no-splitrd-skip / rdpenalty=0 / psy-rd=1.00 / psy-rdoq=1.00 / no-rd-refine / no-lossless / cbqpoffs=0 / crqpoffs=0 / rc=crf / crf=19.6 / qcomp=0.50 / qpstep=4 / stats-write=0 / stats-read=0 / ipratio=1.40 / pbratio=1.30 / aq-mode=2 / aq-strength=1.10 / cutree / zone-count=0 / no-strict-cbr / qg-size=32 / no-rc-grain / qpmax=69 / qpmin=0 / no-const-vbv / sar=0 / overscan=0 / videoformat=5 / range=0 / colorprim=2 / transfer=2 / colormatrix=2 / chromaloc=0 / display-window=0 / max-cll=0,0 / min-luma=0 / max-luma=1023 / log2-max-poc-lsb=8 / vui-timing-info / vui-hrd-info / slices=1 / no-opt-qp-pps / no-opt-ref-list-length-pps / no-multi-pass-opt-rps / scenecut-bias=0.05 / no-opt-cu-delta-qp / no-aq-motion / no-hdr / no-hdr-opt / no-dhdr10-opt / no-idr-recovery-sei / analysis-reuse-level=5 / scale-factor=0 / refine-intra=0 / refine-inter=0 / refine-mv=0 / no-limit-sao / ctu-info=0 / no-lowpass-dct / refine-mv-type=0 / copy-pic=1 / max-ausize-factor=1.0 / no-dynamic-refine / no-single-sei
Default                                  : Yes
Forced                                   : No

Audio
ID                                       : 2
Format                                   : AAC
Format/Info                              : Advanced Audio Codec
Format profile                           : LC
Codec ID                                 : A_AAC-2
Duration                                 : 42 min 22 s
Bit rate                                 : 448 kb/s
Channel(s)                               : 6 channels
Channel positions                        : Front: L C R, Side: L R, LFE
Sampling rate                            : 48.0 kHz
Frame rate                               : 46.875 FPS (1024 SPF)
Compression mode                         : Lossy
Delay relative to video                  : 9 ms
Stream size                              : 136 MiB (7%)
Language                                 : English
Default                                  : Yes
Forced                                   : No

Text
ID                                       : 1
Format                                   : UTF-8
Codec ID                                 : S_TEXT/UTF8
Codec ID/Info                            : UTF-8 Plain Text
Duration                                 : 42 min 14 s
Bit rate                                 : 100 b/s
Count of elements                        : 1146
Stream size                              : 31.1 KiB (0%)
Language                                 : English
Default                                  : Yes
Forced                                   : No

We have no issue with individuals posting or re-uploading our torrents on a platform we aren't on. However, if this is something you'd like to do, please do so in a 'as-is' format. We ask that you do not create a new torrent, include all descriptions you see above including the UTR logo, tags, notes and screenshots. If you'd like to become a permanent poster on a website we don't post to, feel free to get in contact with a UniTeam member.

Category:TV > HEVC/x265
Lang:English  English
Total Size:31.40 GB
Info Hash:9289585b57fca92baffd1f5bb6f48923056f999f
Added By:UTR
Date Added:28-05-2018 23:28:57

Files

File List: 
 File Size
DC's Legends of Tomorrow S03E01 Aruba-Con 1080p AMZN WEBRip x265 AAC 5.1 D0ct0rLew[UTR].mkv1.89 GB
DC's Legends of Tomorrow S03E02 Freakshow 1080p AMZN WEBRip x265 AAC 5.1 D0ct0rLew[UTR].mkv1.79 GB
DC's Legends of Tomorrow S03E03 Zari 1080p AMZN WEBRip x265 AAC 5.1 D0ct0rLew[UTR].mkv1.81 GB
DC's Legends of Tomorrow S03E04 Phone Home 1080p AMZN WEBRip x265 AAC 5.1 D0ct0rLew[UTR].mkv1.67 GB
DC's Legends of Tomorrow S03E05 Return of the Mack 1080p AMZN WEBRip x265 AAC 5.1 D0ct0rLew[UTR].mkv1.35 GB
DC's Legends of Tomorrow S03E06 Helen Hunt 1080p AMZN WEBRip x265 AAC 5.1 D0ct0rLew[UTR].mkv1.55 GB
DC's Legends of Tomorrow S03E07 Welcome to the Jungle 1080p AMZN WEBRip x265 AAC 5.1 D0ct0rLew[UTR].mkv2.27 GB
DC's Legends of Tomorrow S03E08 Crisis on Earth X Part 4 1080p AMZN WEBRip x265 AAC 5.1 D0ct0rLew[UTR].mkv1.65 GB
DC's Legends of Tomorrow S03E09 Beebo the God of War 1080p AMZN WEBRip x265 AAC 5.1 D0ct0rLew[UTR].mkv1.80 GB
DC's Legends of Tomorrow S03E10 Daddy Darhkest 1080p AMZN WEBRip x265 AAC 5.1 D0ct0rLew[UTR].mkv1.49 GB
DC's Legends of Tomorrow S03E11 Here I Go Again 1080p AMZN WEBRip x265 AAC 5.1 D0ct0rLew[UTR].mkv2.17 GB
DC's Legends of Tomorrow S03E12 The Curse of the Earth Totem 1080p AMZN WEBRip x265 AAC 5.1 D0ct0rLew[UTR].mkv1.82 GB
DC's Legends of Tomorrow S03E13 No Country for Old Dads 1080p AMZN WEBRip x265 AAC 5.1 D0ct0rLew[UTR].mkv1.29 GB
DC's Legends of Tomorrow S03E14 Amazing Grace 1080p AMZN WEBRip x265 AAC 5.1 D0ct0rLew[UTR].mkv1.57 GB
DC's Legends of Tomorrow S03E15 Necromancing The Stone 1080p AMZN WEBRip x265 AAC 5.1 D0ct0rLew[UTR].mkv1.83 GB
DC's Legends of Tomorrow S03E16 I Ava 1080p AMZN WEBRip x265 AAC 5.1 D0ct0rLew[UTR].mkv1.64 GB
DC's Legends of Tomorrow S03E17 Guest Starring John Noble 1080p AMZN WEBRip x265 AAC 5.1 D0ct0rLew[UTR].mkv1.98 GB
DC's Legends of Tomorrow S03E18 The Good the Bad and the Cuddly 1080p AMZN WEBRip x265 AAC 5.1 D0ct0rLew[UTR].mkv1.84 GB



Loading...
Comments

There are currently no comments. Be the first one to write something !

Disclaimer: None of the files shown here are actually hosted or transmitted by this server. The links are provided solely by this site's users. The site moderation is also a service provided by the site's users. The administrator of this site (ettv.tv) cannot be held responsible for what its users post, or any other actions of its users. You may not use this site to distribute or download any material when you do not have the legal rights to do so. It is your own responsibility to adhere to these terms.

Sitemap